【BD中字】突破极限 Najlepszy (2017)【719MB / 波兰传记电影】


总分
  • 评分:0人参与评分
  • 分级: 资源
  • 类型:欧美电影
  • 格式:[MP4]
  • 发行时间:2017年
  • 地区/语言:波兰(波兰文)
  • 统计:116次 浏览
  • 时间:2018-06-11 13:20:40发布 | 2018-06-11 13:20:40更新

电骡资源

简介

https://pan.baidu.com/share/init?surl=T_gXGtmMXUst5QgqpElQTw  密码: d5ca

http://www.pniao.com/Mov/one/51406.html


https://www.imdb.com/title/tt6737766/

突破极限 Najlepszy (2017)


导演: 卢卡斯·帕勒科斯基

编剧: Agatha Dominik / Maciej Karpiński

主演: 雅酷朴·盖尔秀 / 阿尔卡迪乌什·雅库比克 / 扬努斯·加约斯 / 亚特·祖米卓斯基 / 马格达莱娜·谢莱卡

类型: 剧情 / 传记 / 运动

制片国家/地区: 波兰

语言: 波兰语

上映日期: 2017-11-17(波兰)

片长: 110分钟

又名: Breaking the Limits / The Fastest

简介: 

     影片根据真实历史事件改编,灵感来自戈尔斯基的人生经历,少年时代生活环境艰难,酗酒,吸毒,成长过程中不乏对社会体系的抗争和对自身的挑战,最终通过艰苦奋斗,从一名毒瘾患者成为了世界铁人三项冠军。





General

Complete name                  : 突破极限.Najlepszy.2017.BD.796p.中文字幕-古兰斯特.mp4

Format                         : MPEG-4

Format profile                 : Base Media

Codec ID                       : isom (isom)

File size                      : 719 MiB

Duration                       : 1 h 48 min

Overall bit rate mode          : Variable

Overall bit rate               : 928 kb/s

Encoded date                   : UTC 2018-06-08 18:32:27

Tagged date                    : UTC 2018-06-08 18:32:27

Video

ID                             : 1

Format                         : AVC

Format/Info                    : Advanced Video Codec

Format profile                 : High@L4

Format settings, CABAC         : Yes

Format settings, ReFrames      : 4 frames

Codec ID                       : avc1

Codec ID/Info                  : Advanced Video Coding

Duration                       : 1 h 48 min

Bit rate                       : 800 kb/s

Maximum bit rate               : 7 397 kb/s

Width                          : 1 920 pixels

Height                         : 796 pixels

Display aspect ratio           : 2.40:1

Frame rate mode                : Variable

Frame rate                     : 24.000 FPS

Minimum frame rate             : 23.810 FPS

Maximum frame rate             : 24.390 FPS

Color space                    : YUV

Chroma subsampling             : 4:2:0

Bit depth                      : 8 bits

Scan type                      : Progressive

Bits/(Pixel*Frame)             : 0.022

Stream size                    : 620 MiB (86%)

Writing library                : x264 core 148 r2721+46 0c4b09a xiaowan [8-bit@all X86]

Encoding settings              : cabac=1 / ref=4 / deblock=1:1:1 / analyse=0x3:0x133 / me=umh / subme=10 / psy=1 / fade_compensate=0.00 / psy_rd=0.30:0.00 / mixed_ref=1 / me_range=24 / chroma_me=1 / trellis=2 / 8x8dct=1 / cqm=0 / deadzone=21,11 / fast_pskip=1 / chroma_qp_offset=-2 / threads=6 / lookahead_threads=1 / sliced_threads=0 / nr=0 / decimate=1 / interlaced=0 / bluray_compat=0 / constrained_intra=0 / fgo=0 / bframes=3 / b_pyramid=2 / b_adapt=2 / b_bias=0 / direct=3 / weightb=1 / open_gop=0 / weightp=2 / keyint=240 / keyint_min=1 / scenecut=60 / intra_refresh=0 / rc_lookahead=60 / rc=2pass / mbtree=1 / bitrate=800 / ratetol=1.0 / qcomp=0.50 / qpmin=0:0:0 / qpmax=69:69:69 / qpstep=4 / cplxblur=20.0 / qblur=0.5 / ip_ratio=1.40 / aq=2:0.80 / aq-sensitivity=10.00 / aq-factor=1.00:1.00:1.00 / aq2=0 / aq3=0

Encoded date                   : UTC 2018-06-08 14:09:51

Tagged date                    : UTC 2018-06-08 18:33:25

Color range                    : Limited

Matrix coefficients            : BT.709

Audio

ID                             : 2

Format                         : AAC

Format/Info                    : Advanced Audio Codec

Format profile                 : LC

Codec ID                       : 40

Duration                       : 1 h 48 min

Bit rate mode                  : Variable

Bit rate                       : 123 kb/s

Maximum bit rate               : 201 kb/s

Channel(s)                     : 6 channels

Channel positions              : Front: L C R, Side: L R, LFE

Sampling rate                  : 48.0 kHz

Frame rate                     : 46.875 FPS (1024 spf)

Compression mode               : Lossy

Stream size                    : 95.6 MiB (13%)

Encoded date                   : UTC 2018-06-08 12:04:24

Tagged date                    : UTC 2018-06-08 18:33:25



楼主最新资源

资源评论

我要评论

资源评分: 很好 不错 一般 较差 很差
  • 小贴士:

  • 1. 类似“顶”、“沙发”之类没有营养的文字,对勤劳贡献的楼主来说是令人沮丧的反馈信息。
  • 2. 提问之前请再仔细看一遍楼主的说明,或许是您遗漏了。
  • 3. 勿催片。请相信骡友们对分享是富有激情的,如果确有更新版本,您一定能搜索到。
  • 4. 请勿到处挖坑绊人、招贴广告。即占空间让人厌烦,又没人会搭理,于人于己都无利。
  • 如果您发现自己的评论不见了,请参考以上4条。

推荐资源

  • [其他] 《黑豹》(Black Panther) 全版
点击复制本页面地址给QQ/MSN/Gtalk好友

楼主信息...
更多
你可能喜欢的
分享资源 | 请在遵循创作共用的约定下使用本站内容 |
©2007-2018 www.2GQQ.com 网站地图 Inc. All rights Reserved.